<?xml version="1.0" standalone="no"?>
<!DOCTYPE svg PUBLIC "-//W3C//DTD SVG 1.1//EN" "http://www.w3.org/Graphics/SVG/1.1/DTD/svg11.dtd" >
<svg>
<metadata>
Created by FontForge 20090914 at Tue Oct  4 06:26:01 2016
 By www-data
Copyright LDEJRuff 2012
</metadata>
<defs>
<font id="Early-GameBoy" horiz-adv-x="1024" >
  <font-face 
    font-family="Early GameBoy"
    font-weight="400"
    font-stretch="normal"
    units-per-em="1024"
    panose-1="0 0 4 0 0 0 0 0 0 0"
    ascent="819"
    descent="-205"
    x-height="768"
    cap-height="768"
    bbox="-128 -256 6400 1024"
    underline-thickness="51"
    underline-position="126"
    unicode-range="U+0020-U+201D"
  />
<missing-glyph horiz-adv-x="1410" 
 />
    <glyph glyph-name=".notdef" horiz-adv-x="1410" 
 />
    <glyph glyph-name="space" unicode=" " horiz-adv-x="512" 
 />
    <glyph glyph-name="exclam" unicode="!" 
d="M256 0v128h384v-128h-384zM256 256v512h384v-512h-384z" />
    <glyph glyph-name="quotedbl" unicode="&#x22;" 
d="M128 512v128h-128v256h256v-384h-128zM512 512v128h-128v256h256v-384h-128z" />
    <glyph glyph-name="quotesingle" unicode="'" 
d="M384 512v128h-128v256h256v-384h-128z" />
    <glyph glyph-name="parenleft" unicode="(" 
d="M128 -128v128h384v-128h-384zM0 0v128h128v-128h-128zM512 0v128h128v-128h-128zM256 128v128h128v-128h-128zM384 256v256h128v-256h-128zM-128 128v512h128v-512h-128zM640 128v512h128v-512h-128zM0 640v128h128v-128h-128zM512 640v128h128v-128h-128zM128 768v128
h384v-128h-384z" />
    <glyph glyph-name="parenright" unicode=")" 
d="M384 128v128h128v256h-128v128h-128v-128h-128v-256h128v-128h128zM128 0v128h-128v512h128v128h384v-128h128v-512h-128v-128h-384z" />
    <glyph glyph-name="asterisk" unicode="*" 
d="M0 0v128h128v-128h-128zM512 0v128h128v-128h-128zM128 128v128h128v-128h-128zM384 128v128h128v-128h-128zM256 256v128h128v-128h-128zM128 384v128h128v-128h-128zM384 384v128h128v-128h-128zM0 512v128h128v-128h-128zM512 512v128h128v-128h-128z" />
    <glyph glyph-name="comma" unicode="," 
d="M128 -128v128h128v-128h-128zM256 0v128h-128v256h256v-384h-128z" />
    <glyph glyph-name="hyphen" unicode="-" 
d="M128 256v256h512v-256h-512z" />
    <glyph glyph-name="period" unicode="." 
d="M0 0v256h256v-256h-256z" />
    <glyph glyph-name="zero" unicode="0" 
d="M512 128v512h-256v-512h256zM128 0v128h-128v512h128v128h512v-128h128v-512h-128v-128h-512z" />
    <glyph glyph-name="one" unicode="1" 
d="M128 0v128h128v384h-128v128h128v128h256v-640h128v-128h-512z" />
    <glyph glyph-name="two" unicode="2" 
d="M0 512v128h128v-128h-128zM0 0v256h128v128h256v256h-256v128h512v-128h128v-256h-128v-128h-256v-128h384v-128h-768z" />
    <glyph glyph-name="three" unicode="3" 
d="M0 0v128h384v256h-256v128h256v128h-384v128h640v-128h128v-128h-128v-128h128v-256h-128v-128h-640z" />
    <glyph glyph-name="four" unicode="4" 
d="M384 256v384h-128v-128h-128v-256h256zM384 0v128h-384v512h128v128h512v-512h128v-128h-128v-128h-256z" />
    <glyph glyph-name="five" unicode="5" 
d="M0 128v128h128v-128h-128zM128 0v128h256v256h-384v384h640v-128h-384v-128h384v-128h128v-256h-128v-128h-512z" />
    <glyph glyph-name="six" unicode="6" 
d="M512 128v256h-256v-256h256zM128 0v128h-128v512h128v128h512v-128h-384v-128h384v-128h128v-256h-128v-128h-512z" />
    <glyph glyph-name="seven" unicode="7" 
d="M128 0v256h128v128h128v128h128v128h-512v128h768v-256h-128v-128h-128v-384h-384z" />
    <glyph glyph-name="eight" unicode="8" 
d="M0 128v256h128v-256h-128zM0 512v128h128v-128h-128zM128 0v128h256v256h-256v128h256v128h-256v128h512v-128h128v-128h-128v-128h128v-256h-128v-128h-512z" />
    <glyph glyph-name="nine" unicode="9" 
d="M0 384v256h128v-256h-128zM128 0v128h256v128h-256v128h256v256h-256v128h512v-128h128v-512h-128v-128h-512z" />
    <glyph glyph-name="colon" unicode=":" 
d="M128 0v256h256v-256h-256zM128 384v256h256v-256h-256z" />
    <glyph glyph-name="semicolon" unicode=";" 
d="M128 -128v128h128v-128h-128zM256 0v128h-128v256h256v-384h-128zM128 512v256h256v-256h-256z" />
    <glyph glyph-name="less" unicode="&#x3c;" horiz-adv-x="1152" 
d="M384 -256v128h128v-128h-128zM256 -128v128h128v-128h-128zM512 -128v128h128v-128h-128zM128 0v128h128v-128h-128zM640 0v128h128v-128h-128zM0 128v384h128v-384h-128zM384 384v128h128v-128h-128zM768 128v384h128v-384h-128zM128 512v128h256v-128h-256zM512 512
v128h256v-128h-256z" />
    <glyph glyph-name="greater" unicode="&#x3e;" horiz-adv-x="1152" 
d="M384 -128v128h-128v128h-128v128h128v256h128v-128h128v128h256v-384h-128v-128h-128v-128h-128z" />
    <glyph glyph-name="question" unicode="?" 
d="M128 -128v128h256v-128h-256zM-128 512v128h128v-128h-128zM128 128v256h128v256h-256v128h512v-128h128v-256h-128v-128h-128v-128h-256z" />
    <glyph glyph-name="A" unicode="A" 
d="M0 0v640h128v-256h256v256h-256v128h512v-128h128v-640h-384v256h-256v-256h-128z" />
    <glyph glyph-name="B" unicode="B" 
d="M512 128v256h-256v-256h256zM512 512v128h-256v-128h256zM0 0v768h640v-128h128v-128h-128v-128h128v-256h-128v-128h-640z" />
    <glyph glyph-name="C" unicode="C" 
d="M128 0v128h-128v512h128v128h512v-128h128v-128h-256v128h-256v-512h256v128h256v-128h-128v-128h-512z" />
    <glyph glyph-name="D" unicode="D" 
d="M384 128v512h-256v-512h256zM0 0v768h640v-128h128v-512h-128v-128h-640z" />
    <glyph glyph-name="E" unicode="E" 
d="M0 0v768h768v-128h-512v-128h384v-128h-384v-256h512v-128h-768z" />
    <glyph glyph-name="F" unicode="F" 
d="M0 0v768h768v-128h-512v-256h384v-128h-384v-256h-256z" />
    <glyph glyph-name="G" unicode="G" 
d="M128 0v128h-128v512h128v128h512v-128h128v-128h-256v128h-256v-512h256v128h-128v128h384v-384h-640z" />
    <glyph glyph-name="H" unicode="H" 
d="M0 0v768h128v-256h384v256h256v-768h-256v384h-384v-384h-128z" />
    <glyph glyph-name="I" unicode="I" 
d="M128 0v128h128v512h-128v128h512v-128h-128v-512h128v-128h-512z" />
    <glyph glyph-name="J" unicode="J" 
d="M128 0v128h-128v256h256v-256h128v512h-128v128h512v-128h-128v-512h-128v-128h-384z" />
    <glyph glyph-name="K" unicode="K" 
d="M0 0v768h256v-256h128v128h128v128h256v-128h-128v-128h-128v-256h128v-128h128v-128h-256v128h-128v128h-128v-256h-256z" />
    <glyph glyph-name="L" unicode="L" 
d="M0 0v768h256v-640h512v-128h-768z" />
    <glyph glyph-name="M" unicode="M" 
d="M0 0v768h128v-128h128v-128h128v128h128v128h256v-768h-256v384h-128v-128h-128v128h-128v-384h-128z" />
    <glyph glyph-name="N" unicode="N" 
d="M0 0v768h128v-128h128v-128h128v-128h128v384h256v-768h-256v128h-128v128h-128v128h-128v-384h-128z" />
    <glyph glyph-name="O" unicode="O" 
d="M512 128v512h-256v-512h256zM128 0v128h-128v512h128v128h512v-128h128v-512h-128v-128h-512z" />
    <glyph glyph-name="P" unicode="P" 
d="M512 384v256h-256v-256h256zM0 0v768h640v-128h128v-256h-128v-128h-384v-256h-256z" />
    <glyph glyph-name="Q" unicode="Q" 
d="M640 0v128h128v-128h-128zM512 128v128h128v-128h-128zM384 256v128h128v-128h-128zM640 256v384h128v-384h-128zM128 0v128h-128v512h128v128h512v-128h-384v-512h256v-128h-384z" />
    <glyph glyph-name="R" unicode="R" 
d="M512 0v128h256v-128h-256zM512 384v256h-256v-256h256zM0 0v768h640v-128h128v-256h-128v-128h-128v-128h-128v128h-128v-256h-256z" />
    <glyph glyph-name="S" unicode="S" 
d="M0 128v128h128v-128h-128zM128 0v128h256v256h-256v128h-128v128h128v128h512v-128h-384v-128h384v-128h128v-256h-128v-128h-512z" />
    <glyph glyph-name="T" unicode="T" 
d="M256 0v640h-256v128h768v-128h-256v-640h-256z" />
    <glyph glyph-name="U" unicode="U" 
d="M0 128v640h128v-640h-128zM128 0v128h256v128h128v512h256v-640h-128v-128h-512z" />
    <glyph glyph-name="V" unicode="V" 
d="M128 128v128h128v-128h-128zM0 256v512h128v-512h-128zM256 0v128h128v128h128v512h256v-512h-128v-128h-128v-128h-256z" />
    <glyph glyph-name="W" unicode="W" 
d="M0 0v768h128v-384h128v128h128v-128h128v384h256v-768h-256v128h-128v128h-128v-128h-128v-128h-128z" />
    <glyph glyph-name="X" unicode="X" 
d="M640 0v128h128v-128h-128zM512 128v128h128v-128h-128zM128 512v128h128v-128h-128zM0 640v128h128v-128h-128zM0 0v256h128v128h128v128h128v128h128v128h256v-128h-128v-128h-128v-256h-256v-128h-128v-128h-128z" />
    <glyph glyph-name="Y" unicode="Y" 
d="M256 0v384h-128v128h-128v256h256v-256h256v256h256v-256h-128v-128h-128v-384h-256z" />
    <glyph glyph-name="Z" unicode="Z" 
d="M0 0v256h128v128h128v128h128v128h-384v128h768v-256h-128v-128h-128v-128h-128v-128h384v-128h-768z" />
    <glyph glyph-name="bracketleft" unicode="[" 
d="M128 -128v128h512v-128h-512zM0 0v256h-128v384h128v-256h768v256h128v-384h-128v-256h-128v256h-512v-256h-128zM0 640v128h128v-128h-128zM640 640v128h128v-128h-128zM128 768v128h512v-128h-512z" />
    <glyph glyph-name="bracketright" unicode="]" 
d="M0 384v256h128v128h512v-128h128v-256h-768z" />
    <glyph glyph-name="a" unicode="a" 
d="M0 0v640h128v-256h256v256h-256v128h512v-128h128v-640h-384v256h-256v-256h-128z" />
    <glyph glyph-name="b" unicode="b" 
d="M512 128v256h-256v-256h256zM512 512v128h-256v-128h256zM0 0v768h640v-128h128v-128h-128v-128h128v-256h-128v-128h-640z" />
    <glyph glyph-name="c" unicode="c" 
d="M128 0v128h-128v512h128v128h512v-128h128v-128h-256v128h-256v-512h256v128h256v-128h-128v-128h-512z" />
    <glyph glyph-name="d" unicode="d" 
d="M384 128v512h-256v-512h256zM0 0v768h640v-128h128v-512h-128v-128h-640z" />
    <glyph glyph-name="e" unicode="e" 
d="M0 0v768h768v-128h-512v-128h384v-128h-384v-256h512v-128h-768z" />
    <glyph glyph-name="f" unicode="f" 
d="M0 0v768h768v-128h-512v-256h384v-128h-384v-256h-256z" />
    <glyph glyph-name="g" unicode="g" 
d="M128 0v128h-128v512h128v128h512v-128h128v-128h-256v128h-256v-512h256v128h-128v128h384v-384h-640z" />
    <glyph glyph-name="h" unicode="h" 
d="M0 0v768h128v-256h384v256h256v-768h-256v384h-384v-384h-128z" />
    <glyph glyph-name="i" unicode="i" 
d="M128 0v128h128v512h-128v128h512v-128h-128v-512h128v-128h-512z" />
    <glyph glyph-name="j" unicode="j" 
d="M128 0v128h-128v256h256v-256h128v512h-128v128h512v-128h-128v-512h-128v-128h-384z" />
    <glyph glyph-name="k" unicode="k" 
d="M0 0v768h256v-256h128v128h128v128h256v-128h-128v-128h-128v-256h128v-128h128v-128h-256v128h-128v128h-128v-256h-256z" />
    <glyph glyph-name="l" unicode="l" 
d="M0 0v768h256v-640h512v-128h-768z" />
    <glyph glyph-name="m" unicode="m" 
d="M0 0v768h128v-128h128v-128h128v128h128v128h256v-768h-256v384h-128v-128h-128v128h-128v-384h-128z" />
    <glyph glyph-name="n" unicode="n" 
d="M0 0v768h128v-128h128v-128h128v-128h128v384h256v-768h-256v128h-128v128h-128v128h-128v-384h-128z" />
    <glyph glyph-name="o" unicode="o" 
d="M512 128v512h-256v-512h256zM128 0v128h-128v512h128v128h512v-128h128v-512h-128v-128h-512z" />
    <glyph glyph-name="p" unicode="p" 
d="M512 384v256h-256v-256h256zM0 0v768h640v-128h128v-256h-128v-128h-384v-256h-256z" />
    <glyph glyph-name="q" unicode="q" 
d="M640 0v128h128v-128h-128zM512 128v128h128v-128h-128zM384 256v128h128v-128h-128zM640 256v384h128v-384h-128zM128 0v128h-128v512h128v128h512v-128h-384v-512h256v-128h-384z" />
    <glyph glyph-name="r" unicode="r" 
d="M512 0v128h256v-128h-256zM512 384v256h-256v-256h256zM0 0v768h640v-128h128v-256h-128v-128h-128v-128h-128v128h-128v-256h-256z" />
    <glyph glyph-name="s" unicode="s" 
d="M0 128v128h128v-128h-128zM128 0v128h256v256h-256v128h-128v128h128v128h512v-128h-384v-128h384v-128h128v-256h-128v-128h-512z" />
    <glyph glyph-name="t" unicode="t" 
d="M256 0v640h-256v128h768v-128h-256v-640h-256z" />
    <glyph glyph-name="u" unicode="u" 
d="M0 128v640h128v-640h-128zM128 0v128h256v128h128v512h256v-640h-128v-128h-512z" />
    <glyph glyph-name="v" unicode="v" 
d="M128 128v128h128v-128h-128zM0 256v512h128v-512h-128zM256 0v128h128v128h128v512h256v-512h-128v-128h-128v-128h-256z" />
    <glyph glyph-name="w" unicode="w" 
d="M0 0v768h128v-384h128v128h128v-128h128v384h256v-768h-256v128h-128v128h-128v-128h-128v-128h-128z" />
    <glyph glyph-name="x" unicode="x" 
d="M640 0v128h128v-128h-128zM512 128v128h128v-128h-128zM128 512v128h128v-128h-128zM0 640v128h128v-128h-128zM0 0v256h128v128h128v128h128v128h128v128h256v-128h-128v-128h-128v-256h-256v-128h-128v-128h-128z" />
    <glyph glyph-name="y" unicode="y" 
d="M256 0v384h-128v128h-128v256h256v-256h256v256h256v-256h-128v-128h-128v-384h-256z" />
    <glyph glyph-name="z" unicode="z" 
d="M0 0v256h128v128h128v128h128v128h-384v128h768v-256h-128v-128h-128v-128h-128v-128h384v-128h-768z" />
    <glyph glyph-name="bar" unicode="|" horiz-adv-x="6400" 
d="M3456 384v128h-256v-128h256zM5248 128v384h-256v-384h256zM6144 128v384h-256v-384h256zM384 384v256h128v-256h-128zM1024 0v640h256v-640h-256zM1408 0v640h256v-128h128v-128h-128v-384h-256zM1920 0v512h-128v128h256v-128h128v-512h-256zM3072 0v128h-128v384h128
v128h512v-128h128v-256h-512v-128h512v-128h-640zM3840 0v640h256v-128h128v-128h-128v-384h-256zM4352 0v512h-128v128h256v-128h128v-512h-256zM5760 0v128h-128v384h128v128h512v-128h128v-384h-128v-128h-512zM2432 0v640h-128v128h128v128h256v-128h128v-128h-128v-640
h-256zM0 0v1024h256v-128h128v-256h-128v-640h-256zM640 0v128h-128v256h128v640h256v-1024h-256zM1024 768v256h256v-256h-256zM4864 0v128h-128v384h128v128h384v384h256v-1024h-640z" />
    <glyph glyph-name="asciitilde" unicode="~" 
d="M0 0v768h256v-128h128v-128h128v-256h-128v-128h-128v-128h-256z" />
    <glyph glyph-name="copyright" unicode="&#xa9;" 
d="M256 0v128h384v-128h-384zM128 128v128h128v-128h-128zM640 128v128h128v-128h-128zM0 256v384h128v-384h-128zM256 256v384h384v-128h-256v-128h256v-128h-384zM768 256v384h128v-384h-128zM128 640v128h128v-128h-128zM640 640v128h128v-128h-128zM256 768v128h384
v-128h-384z" />
    <glyph glyph-name="quoteleft" unicode="&#x2018;" 
d="M384 512v128h-128v256h256v-384h-128z" />
    <glyph glyph-name="quoteright" unicode="&#x2019;" 
d="M384 512v128h-128v256h256v-384h-128z" />
    <glyph glyph-name="quotedblleft" unicode="&#x201c;" 
d="M128 384v128h-128v256h256v-384h-128zM512 384v128h-128v256h256v-384h-128z" />
    <glyph glyph-name="quotedblright" unicode="&#x201d;" 
d="M128 384v128h-128v256h256v-384h-128zM512 384v128h-128v256h256v-384h-128z" />
    <glyph glyph-name="NULL" horiz-adv-x="0" 
 />
    <glyph glyph-name="nonmarkingreturn" horiz-adv-x="384" 
 />
  </font>
</defs>
</svg>
